Project

General

Profile

Bug #1932

text based dvb subs.

Added by danny skjodt almost 8 years ago. Updated almost 8 years ago.

Status:
New
Priority:
Normal
Category:
Muxers
Target version:
-
Start date:
2014-01-14
Due date:
% Done:

0%

Estimated time:
Found in version:
3.9.354
Affected Versions:

Description

They are just completely ignored in the current master and have been so since the dvb core rewrite :)
Will provide more info if needed ;)


Files

SkySports4.ts (34.7 MB) SkySports4.ts danny skjodt, 2014-01-16 01:08
12148H.ts (257 MB) 12148H.ts danny skjodt, 2014-01-16 13:32

History

#1

Updated by Adam Sutton almost 8 years ago

Please provide a muxdump for testing.

Adam

#2

Updated by danny skjodt almost 8 years ago

Adam Sutton wrote:

Please provide a muxdump for testing.

Adam

Sure here is a dump of Sky Sports 4
Its related to the pat rewriting after doing a clean install with new config thats the only place where I dont have subs.

With pmt rewrite on the subs is missing, and should'nt pmt rewriting remove the extra empty programs?
Here is how Sky Sports 4 is read by ffmpeg with the diffrend modes on/off.

none

Input #0, mpegts, from 'http://tvheadend:9981/stream/channel/Sky%20Sports%204':
Duration: N/A, start: 44687.509489, bitrate: 384 kb/s
Program 4914
Metadata:
service_name : Sky Sports 1
service_provider: BSkyB
Program 4610
Metadata:
service_name : Sky Sports 4
service_provider: BSkyB
Program 4611
Metadata:
service_name : Sky Sports 1
service_provider: BSkyB
Program 4613
Metadata:
service_name : Sky Sports 3
service_provider: BSkyB
Program 4907
Metadata:
service_name : Sky Spts News
service_provider: BSkyB
Program 4909
Metadata:
service_name : Sky Spts News
service_provider: BSkyB
Program 5401
Metadata:
service_name : Sky Sports 4
service_provider: BSkyB
Program 5308
Metadata:
service_name : S1Test
service_provider: BSkyB
Program 5404
Metadata:
service_name : Sky Sports 4
service_provider: BSkyB
Stream #0:0[0x202]: Video: mpeg2video (Main) ([2][0][0][0] / 0x0002), yuv420p(tv), 704x576 [SAR 16:11 DAR 16:9], max. 15000 kb/s, 25 fps, 25 tbr, 90k tbn, 50 tbc
Stream #0:1[0x296](NAR): Audio: mp2 ([4][0][0][0] / 0x0004), 48000 Hz, stereo, s16p, 192 kb/s
Stream #0:2[0x282](eng): Audio: mp2 ([4][0][0][0] / 0x0004), 48000 Hz, stereo, s16p, 192 kb/s
Stream #0:3[0x242](eng): Subtitle: dvb_teletext ([6][0][0][0] / 0x0006)
Stream #0:4[0x408]: Unknown: none ([5][0][0][0] / 0x0005)
Stream #0:5[0x905]: Unknown: none ([5][0][0][0] / 0x0005)
Stream #0:6[0x902]: Unknown: none ([5][0][0][0] / 0x0005)
Stream #0:7[0x901]: Unknown: none ([5][0][0][0] / 0x0005)
Stream #0:8[0x909](eng): Unknown: none ([5][0][0][0] / 0x0005)
Stream #0:9[0x908](eng): Unknown: none ([5][0][0][0] / 0x0005)
Program 4910
Metadata:
service_name : Sky Spts News
service_provider: BSkyB
Program 5434
Metadata:
service_name : Sky Sports 4
service_provider: BSkyB
Program 4908
Metadata:
service_name : SP News
service_provider: BSkyB
Program 4901
Metadata:
service_name : Sky Atlantic
service_provider: BSkyB
Program 4900
Metadata:
service_name : Sky Arts 2
service_provider: BSkyB
Program 5402
Metadata:
service_name : FOX+
service_provider: BSkyB
Program 5431
Metadata:
service_name : ComedyCtralX
service_provider: BSkyB
Program 5009
Metadata:
service_name : Eurosport 2
service_provider: BSkyB
Program 8003
Metadata:
service_name : Vegas Roulette II
service_provider: BSkyB
Program 8103
Metadata:
service_name : Vegas DOND
service_provider: BSkyB
Program 8166
Metadata:
service_name : Games Slot 10
service_provider: BSkyB
At least one output file must be specified

pmt only

Input #0, mpegts, from 'http://tvheadend:9981/stream/channel/Sky%20Sports%204':
Duration: N/A, start: 44882.729489, bitrate: 384 kb/s
Program 4914
Metadata:
service_name : Sky Sports 1
service_provider: BSkyB
Program 4610
Metadata:
service_name : Sky Sports 4
service_provider: BSkyB
Program 4611
Metadata:
service_name : Sky Sports 1
service_provider: BSkyB
Program 4613
Metadata:
service_name : Sky Sports 3
service_provider: BSkyB
Program 4907
Metadata:
service_name : Sky Spts News
service_provider: BSkyB
Program 4909
Metadata:
service_name : Sky Spts News
service_provider: BSkyB
Program 5401
Metadata:
service_name : Sky Sports 4
service_provider: BSkyB
Program 5308
Metadata:
service_name : S1Test
service_provider: BSkyB
Program 5404
Metadata:
service_name : Sky Sports 4
service_provider: BSkyB
Stream #0:0[0x202]: Video: mpeg2video (Main) ([2][0][0][0] / 0x0002), yuv420p(tv), 704x576 [SAR 16:11 DAR 16:9], max. 15000 kb/s, 25 fps, 25 tbr, 90k tbn, 50 tbc
Stream #0:1[0x296](nar): Audio: mp2 ([4][0][0][0] / 0x0004), 48000 Hz, stereo, s16p, 192 kb/s
Stream #0:2[0x282](eng): Audio: mp2 ([4][0][0][0] / 0x0004), 48000 Hz, stereo, s16p, 192 kb/s
Program 4910
Metadata:
service_name : Sky Spts News
service_provider: BSkyB
Program 5434
Metadata:
service_name : Sky Sports 4
service_provider: BSkyB
Program 4908
Metadata:
service_name : SP News
service_provider: BSkyB
Program 4901
Metadata:
service_name : Sky Atlantic
service_provider: BSkyB
Program 4900
Metadata:
service_name : Sky Arts 2
service_provider: BSkyB
Program 5402
Metadata:
service_name : FOX+
service_provider: BSkyB
Program 5431
Metadata:
service_name : ComedyCtralX
service_provider: BSkyB
Program 5009
Metadata:
service_name : Eurosport 2
service_provider: BSkyB
Program 8003
Metadata:
service_name : Vegas Roulette II
service_provider: BSkyB
Program 8103
Metadata:
service_name : Vegas DOND
service_provider: BSkyB
Program 8166
Metadata:
service_name : Games Slot 10
service_provider: BSkyB
No Program
Stream #0:3[0x242]: Audio: mp1, 0 channels, s16p
At least one output file must be specified

pat only

Input #0, mpegts, from 'http://tvheadend:9981/stream/channel/Sky%20Sports%204':
Duration: N/A, start: 44832.049489, bitrate: 384 kb/s
Program 5404
Metadata:
service_name : Sky Sports 4
service_provider: BSkyB
Stream #0:0[0x202]: Video: mpeg2video (Main) ([2][0][0][0] / 0x0002), yuv420p(tv), 704x576 [SAR 16:11 DAR 16:9], max. 15000 kb/s, 25 fps, 25 tbr, 90k tbn, 50 tbc
Stream #0:1[0x296](NAR): Audio: mp2 ([4][0][0][0] / 0x0004), 48000 Hz, stereo, s16p, 192 kb/s
Stream #0:2[0x282](eng): Audio: mp2 ([4][0][0][0] / 0x0004), 48000 Hz, stereo, s16p, 192 kb/s
Stream #0:3[0x242](eng): Subtitle: dvb_teletext ([6][0][0][0] / 0x0006)
Stream #0:4[0x408]: Unknown: none ([5][0][0][0] / 0x0005)
Stream #0:5[0x905]: Unknown: none ([5][0][0][0] / 0x0005)
Stream #0:6[0x902]: Unknown: none ([5][0][0][0] / 0x0005)
Stream #0:7[0x901]: Unknown: none ([5][0][0][0] / 0x0005)
Stream #0:8[0x909](eng): Unknown: none ([5][0][0][0] / 0x0005)
Stream #0:9[0x908](eng): Unknown: none ([5][0][0][0] / 0x0005)
Program 5402
Metadata:
service_name : FOX+
service_provider: BSkyB
Program 5431
Metadata:
service_name : ComedyCtralX
service_provider: BSkyB
Program 5434
Metadata:
service_name : Sky Sports 4
service_provider: BSkyB
Program 8003
Metadata:
service_name : Vegas Roulette II
service_provider: BSkyB
Program 8103
Metadata:
service_name : Vegas DOND
service_provider: BSkyB
Program 8166
Metadata:
service_name : Games Slot 10
service_provider: BSkyB
Program 4610
Metadata:
service_name : Sky Sports 4
service_provider: BSkyB
Program 4611
Metadata:
service_name : Sky Sports 1
service_provider: BSkyB
Program 4613
Metadata:
service_name : Sky Sports 3
service_provider: BSkyB
Program 4900
Metadata:
service_name : Sky Arts 2
service_provider: BSkyB
Program 4901
Metadata:
service_name : Sky Atlantic
service_provider: BSkyB
Program 4907
Metadata:
service_name : Sky Spts News
service_provider: BSkyB
Program 4908
Metadata:
service_name : SP News
service_provider: BSkyB
Program 4909
Metadata:
service_name : Sky Spts News
service_provider: BSkyB
Program 4910
Metadata:
service_name : Sky Spts News
service_provider: BSkyB
Program 4914
Metadata:
service_name : Sky Sports 1
service_provider: BSkyB
Program 5009
Metadata:
service_name : Eurosport 2
service_provider: BSkyB
Program 5308
Metadata:
service_name : S1Test
service_provider: BSkyB
Program 5401
Metadata:
service_name : Sky Sports 4
service_provider: BSkyB
At least one output file must be specified

pat + pmt

Input #0, mpegts, from 'http://tvheadend:9981/stream/channel/Sky%20Sports%204':
Duration: N/A, start: 44618.189489, bitrate: 384 kb/s
Program 5404
Metadata:
service_name : Sky Sports 4
service_provider: BSkyB
Stream #0:0[0x202]: Video: mpeg2video (Main) ([2][0][0][0] / 0x0002), yuv420p(tv), 704x576 [SAR 16:11 DAR 16:9], max. 15000 kb/s, 25 fps, 25 tbr, 90k tbn, 50 tbc
Stream #0:1[0x296](nar): Audio: mp2 ([4][0][0][0] / 0x0004), 48000 Hz, stereo, s16p, 192 kb/s
Stream #0:2[0x282](eng): Audio: mp2 ([4][0][0][0] / 0x0004), 48000 Hz, stereo, s16p, 192 kb/s
Program 5402
Metadata:
service_name : FOX+
service_provider: BSkyB
Program 5431
Metadata:
service_name : ComedyCtralX
service_provider: BSkyB
Program 5434
Metadata:
service_name : Sky Sports 4
service_provider: BSkyB
Program 8003
Metadata:
service_name : Vegas Roulette II
service_provider: BSkyB
Program 8103
Metadata:
service_name : Vegas DOND
service_provider: BSkyB
Program 8166
Metadata:
service_name : Games Slot 10
service_provider: BSkyB
Program 4610
Metadata:
service_name : Sky Sports 4
service_provider: BSkyB
Program 4611
Metadata:
service_name : Sky Sports 1
service_provider: BSkyB
Program 4613
Metadata:
service_name : Sky Sports 3
service_provider: BSkyB
Program 4900
Metadata:
service_name : Sky Arts 2
service_provider: BSkyB
Program 4901
Metadata:
service_name : Sky Atlantic
service_provider: BSkyB
Program 4907
Metadata:
service_name : Sky Spts News
service_provider: BSkyB
Program 4908
Metadata:
service_name : SP News
service_provider: BSkyB
Program 4909
Metadata:
service_name : Sky Spts News
service_provider: BSkyB
Program 4910
Metadata:
service_name : Sky Spts News
service_provider: BSkyB
Program 4914
Metadata:
service_name : Sky Sports 1
service_provider: BSkyB
Program 5009
Metadata:
service_name : Eurosport 2
service_provider: BSkyB
Program 5308
Metadata:
service_name : S1Test
service_provider: BSkyB
Program 5401
Metadata:
service_name : Sky Sports 4
service_provider: BSkyB
No Program
Stream #0:3[0x242]: Audio: mp1, 0 channels, s16p
At least one output file must be specified

#3

Updated by Adam Sutton almost 8 years ago

That looks like a recording of just that service rather than of the entire mux? Use the play link in the muxes tab.

Adam

#4

Updated by danny skjodt almost 8 years ago

Adam Sutton wrote:

That looks like a recording of just that service rather than of the entire mux? Use the play link in the muxes tab.

Adam

oh, here it is ;)

Also available in: Atom PDF