Project

General

Profile

Sample muxdumps

Added by Adam Sutton over 8 years ago

I'd really appreciate a set of muxdumps from a variety of different setups, both dvb type (inc iptv and atsc) and network setups. The stranger the better. I want to make sure I don't do anything that precludes certain setups and also try to improve network scanning. Samples should be approx 1-2 minutes lonng.

If you're not familiar with getting muxdumps you can get one by selecting the play option in mux config tab (not iptv) and save, cancel after 1-2 min. You must have adapter in raw mux rx (requires restart to change). Please give rough description of your setup and where the dump is from.

Edit: couple of minor points:

1. Don't tar/compress the files there is very little point and I don't want to have to install stuff just to open the files.

2. Don't bother including anything for UK DVB-S/T, got plenty of access to that myself :)

ta
Adam


Replies (16)

RE: Sample muxdumps - Added by Bryan Chain over 8 years ago

I have attached a random muxdump from an ATSC stream to issue #1723, if you would like a different one let me know. I currently have a number of US/NA based ATSC muxes listed I can pull from.

RE: Sample muxdumps - Added by Datafreak - over 8 years ago

Hi,

I have created a muxdump for you.

TV-Card: TERRATEC H7
Location: Germany
Network: de_Kabel_BW
Version: HTS Tvheadend 3.4

I hope it helps.

Regards,
Datafreak

RE: Sample muxdumps - Added by Bas K over 8 years ago

TV-Card: Sundtek MediaTV Pro
Location: The Netherlands
Network: Ziggo
Version: HTS Tvheadend 3.5.116~ga2ccbb2~raring

RE: Sample muxdumps - Added by Kev S over 8 years ago

Are you able to get the SCOPUS multiplex off 28.5'E?
DVB-S, QSPK, 11,640,000kHz Vertical, 1000kBaud, NetworkID 177

Very low symbol rate and low signal strength - easy test of the SCPC stuff if you can tune to it.

If not I can attach a rip, but bare in mind the signal strength is reported as 0%* it took TSReaderLite about 10 seconds to read the PAT - lots of weak signal artefacts on the video too.

It occasionally appears stronger so I can keep a look out if needed.

Also DVB-S, QSPK, 12,712,000kHz Vertical, 6111kBaud, Network ID 65535 appears sperodically (not there now) and is even weaker.

  • My DVB-S tuner is at the end of a long and substandard cable run (can't get the multiplex carrying Kiss, Kerrang, and The Box very well), the receiver in the lounge with a more normal cable does get a better signal but alas can't do any ripping - so you stand a better chance than I if you have a decent setup!

RE: Sample muxdumps - Added by Andreas B over 8 years ago

TV-Card: Sundtek MediaTV Digital Home (DVB-CT)
Location: Norway
Network: DVB-C (provider is "Get")
Version: 3.5.116~ga2ccbb2

The included muxdump contains 4 HD channels. Until recent git versions (i would guess 3-4 months ago) TVH did discover those services correctly. Later versions of TVH does discover those services, but for some reason it also discovers a lot of services (50+) that's not actually there (they are located on other muxes, and correctly discovered there).

This actually happens to multiple muxes in my setup. When reverting to older versions of TVH, it works fine (i'm using a git version from 31.12.2012 for day-to-day use because of this).

Hopefully this muxdump can help locate this issue.

RE: Sample muxdumps - Added by dhead 666 over 8 years ago

I'm on tvheadend 3.5.100~g82a1edd and I don't got the raw mux rx option, is it an optional feature of the dvb card that may not be available on mine ?

Anyway I've already made a full ts dump from mumudvb, I hope this helps.

dvb card: ite it9135.
location: Israel.
network: dvb-t.

https://dl.dropboxusercontent.com/u/6902100/XBMC/test.ts

RE: Sample muxdumps - Added by Michael Neurohr over 8 years ago

Two more dumps:

First:
TV-Card: Technisat SkyStar USB HD
Location: Austria
Standard: DVB-S2
Network: AFN Eurobird 9A
Satellite: Eutelsat9 9.0E
Frequency: 11,765,840 kHz V
Version: HTS Tvheadend 3.4
File: http://filestore.su/tvh/_dev_dvb_adapter0_Technisat_SkyStar_USB_HD__DVB_S_S2_11766000_V_satconf_3.crdownload

Second:
TV-Card: Technisat SkyStar USB HD
Location: Austria
Standard: DVB-S2
Network: Astra 1
Satellite: Astra 19.2E
Frequency: 12,051,000 kHz V
Version: HTS Tvheadend 3.4
File: http://filestore.su/tvh/_dev_dvb_adapter0_Technisat_SkyStar_USB_HD__DVB_S_S2_12051000_V_satconf_1.crdownload

Cheers,
Michael

RE: Sample muxdumps - Added by Kev S over 8 years ago

TV Card: TechnoTrend S-2400 DVB-S
Modulation: DVB-S
Satellite: Astra 19.2'E
Target Country : Germany and Austria
Version: HTS TVHeadend 4

File 1
NIT: 19.2E 11.837 GHz Horizontal 27500 3/4 QPSK, DVB-S
ARD Digital
A number of German public service channels includes Das Erste and WDR Köln
https://www.box.com/s/2vh950avp85rjupc7xmw

File 2
PAT Version Number: 4
Transport Stream ID: 7 (0x0007)
NIT: 19.2E 12.149 GHz Horizontal 27500 3/4 QPSK, DVB-S
BetaDigital
Includes a number of SES tests, plus German and Austrian channels
https://www.box.com/s/n6i3oudixixw2kmyga9j

File 3
Transport Stream ID: 1089 (0x0441)
NIT: 19.2E 12.188 GHz Horizontal 27500 3/4 QPSK, DVB-S
RTL / RTL World
Includes most of the RTL (German commercial broadcaster) channels including regional variations
(attached)

----------------------------------
TV Card: Kworld UB499-2T T09_1
Modulation: DVB-T
Network: East Midlands
Transmitter : Waltham
Target Country : UK

File 4
PAT Version Number: 1
NIT: 794.0 MHz
I know you didn't want any UK ones but this is a bit of a weird one that's confused one of my digiboxes (a PVR that hasn't recorded since DSO and which wasn't supposed to work post DSO at all) so might be a good test.
Basically it's listing the same services on two multiplexes i.e. itself (794) and also 698.0 MHz which the multiplex will be moving too tonight (handily TV Headend is now listing the services allowing me to config before the move :o) - whether this is from an overnight test or TVHeadend grabbing them anyway I don't know!)
https://www.box.com/s/kte9pkde4ubyjyrx72q6

RE: Sample muxdumps - Added by gary tan about 8 years ago

Irish dvb-t sample attached. Would be great if series link support could be added. Not seeing record series option in tvheadend 3.4 even though saorview (irish dvb-t) offers this.

RE: Sample muxdumps - Added by Normand Leclerc about 8 years ago

Hoping this will be usefull... Really want EPG to work!

American/Canadian muxdumps.
tvheadend Build: 3.5.241~ge84acea
Hauppauge 2250
ATSC capture

also added plugin code for ATSC EPG made for dvb.

RE: Sample muxdumps - Added by Brendan Pike almost 8 years ago

Modulation: 8VSB
Network: CITY-DT
Target Country: CA
ATSC without subchannels

Tuner: HDHomeRun3 US ATSC (via dvbhdhomerun)

Missing service names and incorrect stypes (Other 0x000).

This used to be working on a very old version of tvheadend (guestimate of 3.2 or 3.0) but never worked on newer versions for a long time.
I cannot revert to the working version because for some reason older versions segfault on startup with my system, which master or release/3.4 runs fine.
HDHomeRun3's are upgraded to latest firmwares. w_scan detects service names and types fine.

Attached muxdump.

RE: Sample muxdumps - Added by Csaba Benedek almost 8 years ago

TV-Card: ITE 9135
Location: Hungary
Standard: DVB-T
Network: DTT Hungary (MinDig TV)
Version: 3.4.27~gfbda802~lucid

3 muxes:
770,000 kHz QAM64, 8MHz, 8k­mode: https://app.box.com/s/7jloa0xjq0v2d4skf0bf
746,000 kHz QAM64, 8MHz, 8k­mode: https://app.box.com/s/bwvhw7sb554xbriso181
610,000 kHz QAM64, 8MHz, 8k­mode https://app.box.com/s/7ynfok0q6axzhnydonh5

RE: Sample muxdumps - Added by dhead 666 over 7 years ago

I hope this is helpfull.

TV-Card: ITE IT9135
Location: Israel
Standard: DVB-T
Network: Idan+
Version: 3.9.308~gdfde2ec

Remarks:
  • There was an issue with this service in the past due to wrong dvb decriptor, see https://tvheadend.org/issues/251 .
  • I didn't really checked this but I'm guessing that there is another error in this service and it is empty subtitles streams (of course not related at all to Tvheadend).
  • When opening the stream with VLC the app will complain about "undf codec", from what I gather this is related to the subtitles streams, I'm not sure what is the proper fix for this, maybe with the future transcoding feature one would be able to choose a stream without the subtitles, maybe the subtitles can be processed to another format or dropped (well, I'm guessing they are empty).

RE: Sample muxdumps - Added by Bruno Bastos almost 7 years ago

Here is my muxdump, hope it helps.

TV-Card: TBS 6285 (DVB-C)
Location: Brazil
Network: NET DIGITAL
Version: HTS Tvheadend 3.9

This mux in particular has a problem of image distortion in one of it's channels. I've made a video of the problem: http://youtu.be/c22KacnJIKY

Bests,

Bruno

RE: Sample muxdumps - Added by Marc Ominus almost 3 years ago

~/git/libjokertv/build$ ffprobe IR.Teheran.Baharestan-Sq.rooftop.T2.554000kHz.200MB.ts 2>&1 >/dev/null | grep Stream.*Video
Stream #0:3[0x582]: Video: hevc (Main 10) ([36][0][0][0] / 0x0024), yuv420p10le(tv, bt709), 1920x1080 [SAR 1:1 DAR 16:9], 50 fps, 50 tbr, 90k tbn, 50 tbc
Stream #0:0[0x58c]: Video: hevc (Main 10) ([36][0][0][0] / 0x0024), yuv420p10le(tv, GBR), 1920x540 [SAR 1:1 DAR 32:9], 50 fps, 50 tbr, 90k tbn, 50 tbc
Stream #0:2[0x596]: Video: hevc (Main 10) ([36][0][0][0] / 0x0024), yuv420p10le(tv, bt709), 1920x540 [SAR 1:1 DAR 32:9], 50 fps, 50 tbr, 90k tbn, 50 tbc

~/git/libjokertv/build$ ffprobe IR.Teheran.Baharestan-Sq.rooftop.T2.554000kHz.200MB.ts 2>&1 >/dev/null | grep Stream.*Audio
Stream #0:4[0x583]: Audio: aac_latm (HE-AACv2) ([17][0][0][0] / 0x0011), 48000 Hz, stereo, fltp
Stream #0:1[0x58d](eng): Audio: aac_latm (HE-AACv2) ([17][0][0][0] / 0x0011), 48000 Hz, stereo, fltp
Stream #0:5[0x597]: Audio: aac_latm (HE-AACv2) ([17][0][0][0] / 0x0011), 48000 Hz, stereo, fltp

########################################################################################################
~/git/libjokertv/build$ ./joker-tv -d 16 -f 554000000 -b 8000000 -l 200 -o IR.Teheran.Baharestan-Sq.rooftop.T2.554000kHz.200MB.ts *** Joker TV usb device found. firmware version 0x37 *** High bandwidth USB isochronous transfers supported. Max TS speed 187.5 Mbps
process_service started
cxd2841er_attach(): I2C adapter 0x14b9e10 SLVX addr 66 SLVT addr 64
~/git/libjokertv/linux/drivers/media/dvb-frontends/cxd2841er.c: i2c wr failed=-1 addr=64 reg=00 len=1
cxd2841er_attach(): attaching CXD2854ER DVB-C/C2/T/T2/ISDB-T frontend
cxd2841er_attach(): chip ID 0xc1 OK.
helene_set_params(): tune frequency 554000kHz
helene_set_params(): tune frequency 553953kHz
TUNE done
INFO: status=0 (LOCK) ucblocks=0, rflevel=-56.800 dBm, SNR 38.600 dB, BER -nan, quality 1
TS outfile:IR.Teheran.Baharestan-Sq.rooftop.T2.554000kHz.200MB.ts
INFO: status=0 (LOCK) ucblocks=0, rflevel=-56.800 dBm, SNR 37.600 dB, BER 0.00e+00, quality 1
USB ISOC: all/complete=6947.017045/2513.015699 transfer/sec 4.95 MBytes 19.730186 mbits/sec, 54.273571 calls/sec
INFO: status=0 (LOCK) ucblocks=0, rflevel=-56.800 dBm, SNR 37.200 dB, BER 0.00e+00, quality 1
USB ISOC: all/complete=7999.532027/2889.330974 transfer/sec 5.64 MBytes 22.572909 mbits/sec, 62.496375 calls/sec
INFO: status=0 (LOCK) ucblocks=0, rflevel=-56.800 dBm, SNR 37.100 dB, BER 0.00e+00, quality 1
USB ISOC: all/complete=7999.804005/2888.929221 transfer/sec 5.64 MBytes 22.569771 mbits/sec, 62.498500 calls/sec
INFO: status=0 (LOCK) ucblocks=0, rflevel=-56.800 dBm, SNR 37.300 dB, BER 0.00e+00, quality 1
USB ISOC: all/complete=7999.716010/2889.397426 transfer/sec 5.64 MBytes 22.573428 mbits/sec, 62.497813 calls/sec
USB ISOC: all/complete=7999.372049/2888.773231 transfer/sec 5.64 MBytes 22.568541 mbits/sec, 62.495094 calls/sec
INFO: status=0 (LOCK) ucblocks=0, rflevel=-56.800 dBm, SNR 37.300 dB, BER 0.00e+00, quality 1
USB ISOC: all/complete=7999.692012/2889.388759 transfer/sec 5.64 MBytes 22.573349 mbits/sec, 62.497594 calls/sec
INFO: status=0 (LOCK) ucblocks=0, rflevel=-56.800 dBm, SNR 35.700 dB, BER 0.00e+00, quality 1
USB ISOC: all/complete=7999.380048/2889.276081 transfer/sec 5.64 MBytes 22.572480 mbits/sec, 62.495188 calls/sec
INFO: status=0 (LOCK) ucblocks=0, rflevel=-56.410 dBm, SNR 35.700 dB, BER 0.00e+00, quality 1
USB ISOC: all/complete=7999.916001/2888.969666 transfer/sec 5.64 MBytes 22.570087 mbits/sec, 62.499375 calls/sec
INFO: status=0 (LOCK) ucblocks=0, rflevel=-56.800 dBm, SNR 36.500 dB, BER 0.00e+00, quality 1
USB ISOC: all/complete=7999.488033/2889.316528 transfer/sec 5.64 MBytes 22.572785 mbits/sec, 62.496032 calls/sec
INFO: status=0 (LOCK) ucblocks=0, rflevel=-56.800 dBm, SNR 35.000 dB, BER 0.00e+00, quality 1
USB ISOC: all/complete=7999.516029/2888.825226 transfer/sec 5.64 MBytes 22.568958 mbits/sec, 62.496250 calls/sec
INFO: status=0 (LOCK) ucblocks=0, rflevel=-56.800 dBm, SNR 35.400 dB, BER 0.00e+00, quality 1
USB ISOC: all/complete=7999.544026/2889.335308 transfer/sec 5.64 MBytes 22.572943 mbits/sec, 62.496469 calls/sec
INFO: status=0 (LOCK) ucblocks=0, rflevel=-56.800 dBm, SNR 37.100 dB, BER 0.00e+00, quality 1
USB ISOC: all/complete=7999.716010/2888.897444 transfer/sec 5.64 MBytes 22.569523 mbits/sec, 62.497813 calls/sec
INFO: status=0 (LOCK) ucblocks=0, rflevel=-56.800 dBm, SNR 35.700 dB, BER 0.00e+00, quality 1
USB ISOC: all/complete=7999.860002/2889.449435 transfer/sec 5.64 MBytes 22.573823 mbits/sec, 62.498938 calls/sec
INFO: status=0 (LOCK) ucblocks=0, rflevel=-56.800 dBm, SNR 36.600 dB, BER 0.00e+00, quality 1
USB ISOC: all/complete=7999.916001/2889.469661 transfer/sec 5.64 MBytes 22.573981 mbits/sec, 62.499344 calls/sec
INFO: status=0 (LOCK) ucblocks=0, rflevel=-56.800 dBm, SNR 35.700 dB, BER 0.00e+00, quality 1
USB ISOC: all/complete=7999.508030/2888.822337 transfer/sec 5.64 MBytes 22.568925 mbits/sec, 62.496156 calls/sec
INFO: status=0 (LOCK) ucblocks=0, rflevel=-56.800 dBm, SNR 34.700 dB, BER 0.00e+00, quality 1
USB ISOC: all/complete=7999.396046/2889.281859 transfer/sec 5.64 MBytes 22.572514 mbits/sec, 62.495282 calls/sec
INFO: status=0 (LOCK) ucblocks=0, rflevel=-56.800 dBm, SNR 35.900 dB, BER 0.00e+00, quality 1
USB ISOC: all/complete=7999.464036/2888.806450 transfer/sec 5.64 MBytes 22.568800 mbits/sec, 62.495813 calls/sec
INFO: status=0 (LOCK) ucblocks=0, rflevel=-56.800 dBm, SNR 35.800 dB, BER 0.00e+00, quality 1
USB ISOC: all/complete=7999.004124/2889.140302 transfer/sec 5.64 MBytes 22.571408 mbits/sec, 62.492220 calls/sec
INFO: status=0 (LOCK) ucblocks=0, rflevel=-56.800 dBm, SNR 35.900 dB, BER 0.00e+00, quality 1
USB ISOC: all/complete=7999.316058/2889.252969 transfer/sec 5.64 MBytes 22.572300 mbits/sec, 62.494688 calls/sec
INFO: status=0 (LOCK) ucblocks=0, rflevel=-56.800 dBm, SNR 36.600 dB, BER 0.00e+00, quality 1
USB ISOC: all/complete=7999.780006/2888.920555 transfer/sec 5.64 MBytes 22.569703 mbits/sec, 62.498313 calls/sec
INFO: status=0 (LOCK) ucblocks=0, rflevel=-56.800 dBm, SNR 35.300 dB, BER 0.00e+00, quality 1
USB ISOC: all/complete=7999.468035/2889.307861 transfer/sec 5.64 MBytes 22.572717 mbits/sec, 62.495875 calls/sec
INFO: status=0 (LOCK) ucblocks=0, rflevel=-56.800 dBm, SNR 36.800 dB, BER 0.00e+00, quality 1
USB ISOC: all/complete=7999.660014/2888.877223 transfer/sec 5.64 MBytes 22.569353 mbits/sec, 62.497344 calls/sec
INFO: status=0 (LOCK) ucblocks=0, rflevel=-56.800 dBm, SNR 36.300 dB, BER 0.00e+00, quality 1
USB ISOC: all/complete=7999.372049/2889.274637 transfer/sec 5.64 MBytes 22.572458 mbits/sec, 62.495125 calls/sec
INFO: status=0 (LOCK) ucblocks=0, rflevel=-56.800 dBm, SNR 35.600 dB, BER 0.00e+00, quality 1
USB ISOC: all/complete=7999.676013/2889.382980 transfer/sec 5.64 MBytes 22.573304 mbits/sec, 62.497469 calls/sec
INFO: status=0 (LOCK) ucblocks=0, rflevel=-56.800 dBm, SNR 36.900 dB, BER 0.00e+00, quality 1
USB ISOC: all/complete=7999.524028/2888.829559 transfer/sec 5.64 MBytes 22.568981 mbits/sec, 62.496313 calls/sec
INFO: status=0 (LOCK) ucblocks=0, rflevel=-56.800 dBm, SNR 36.700 dB, BER 0.00e+00, quality 1
USB ISOC: all/complete=7999.820004/2889.434988 transfer/sec 5.64 MBytes 22.573722 mbits/sec, 62.498625 calls/sec
INFO: status=0 (LOCK) ucblocks=0, rflevel=-56.800 dBm, SNR 34.700 dB, BER 0.00e+00, quality 1
USB ISOC: all/complete=7999.404044/2888.784786 transfer/sec 5.64 MBytes 22.568642 mbits/sec, 62.495375 calls/sec
INFO: status=0 (LOCK) ucblocks=0, rflevel=-56.800 dBm, SNR 36.600 dB, BER 0.00e+00, quality 1
USB ISOC: all/complete=7999.504031/2889.320862 transfer/sec 5.64 MBytes 22.572819 mbits/sec, 62.496125 calls/sec
INFO: status=0 (LOCK) ucblocks=0, rflevel=-56.800 dBm, SNR 36.000 dB, BER 0.00e+00, quality 1
USB ISOC: all/complete=7998.732201/2888.542166 transfer/sec 5.64 MBytes 22.566736 mbits/sec, 62.490095 calls/sec
INFO: status=0 (LOCK) ucblocks=0, rflevel=-56.800 dBm, SNR 35.600 dB, BER 0.00e+00, quality 1
USB ISOC: all/complete=7999.204079/2889.212523 transfer/sec 5.64 MBytes 22.571973 mbits/sec, 62.493782 calls/sec
INFO: status=0 (LOCK) ucblocks=0, rflevel=-56.800 dBm, SNR 36.800 dB, BER 0.00e+00, quality 1
USB ISOC: all/complete=7998.788184/2889.062307 transfer/sec 5.64 MBytes 22.570799 mbits/sec, 62.490533 calls/sec
INFO: status=0 (LOCK) ucblocks=0, rflevel=-56.800 dBm, SNR 36.300 dB, BER 0.00e+00, quality 1
USB ISOC: all/complete=7999.080106/2888.667803 transfer/sec 5.64 MBytes 22.567717 mbits/sec, 62.492813 calls/sec
INFO: status=0 (LOCK) ucblocks=0, rflevel=-56.800 dBm, SNR 35.700 dB, BER 0.00e+00, quality 1
USB ISOC: all/complete=7998.976131/2889.130191 transfer/sec 5.64 MBytes 22.571329 mbits/sec, 62.492001 calls/sec
INFO: status=0 (LOCK) ucblocks=0, rflevel=-56.800 dBm, SNR 36.100 dB, BER 0.00e+00, quality 1
USB ISOC: all/complete=7998.712207/2888.534946 transfer/sec 5.64 MBytes 22.566679 mbits/sec, 62.489939 calls/sec
INFO: status=0 (LOCK) ucblocks=0, rflevel=-56.800 dBm, SNR 36.300 dB, BER 0.00e+00, quality 1
USB ISOC: all/complete=7998.980130/2889.131636 transfer/sec 5.64 MBytes 22.571352 mbits/sec, 62.492064 calls/sec
INFO: status=0 (LOCK) ucblocks=0, rflevel=-56.800 dBm, SNR 35.900 dB, BER 0.00e+00, quality 1
saved 209732800 bytes. Stopping TS ...
Closing device ...
joker_close: CI stack stopped
process_service: bye !
joker_close: service thread stopped
joker_close: done

RE: Sample muxdumps - Added by Marc Ominus almost 3 years ago

~/git/libjokertv/build$ ffprobe CU.Habana.Libre-Vedado.689MHz.ts 2>&1 >/dev/null | grep Stream.*Video
Stream #0:2[0x100]: Video: h264 (High) ([27][0][0][0] / 0x001B), yuv420p(tv, bt709, top first), 1920x1080 [SAR 1:1 DAR 16:9], 29.97 fps, 29.97 tbr, 90k tbn, 59.94 tbc
Stream #0:0[0x104]: Video: h264 (High) ([27][0][0][0] / 0x001B), yuv420p(tv, bt709, top first), 1920x1080 [SAR 1:1 DAR 16:9], 29.97 fps, 29.97 tbr, 90k tbn, 59.94 tbc

~/git/libjokertv/build$ ffprobe CU.Habana.Libre-Vedado.689MHz.ts 2>&1 >/dev/null | grep Stream.*Audio
Stream #0:3[0x102]: Audio: mp2 ([3][0][0][0] / 0x0003), 48000 Hz, stereo, s16p, 256 kb/s
Stream #0:1[0x105]: Audio: mp2 ([3][0][0][0] / 0x0003), 48000 Hz, stereo, s16p, 256 kb/s

########################################################################################################
~/git/libjokertv/build/joker-tv -d 13 -f 689000000 -b 6000000 -o CU.Habana.Libre-Vedado.689MHz.ts -l 100 *** Joker TV usb device found. firmware version 0x37 *** High bandwidth USB isochronous transfers supported. Max TS speed 187.5 Mbps
process_service started
helene_set_params(): tune frequency 689000kHz
TUNE done
INFO: status=0 (LOCK) ucblocks=0, rflevel=-79.040 dBm, SNR 19.000 dB, BER 3.91e-03, quality 0
TS outfile:CU.Habana.Libre-Vedado.689MHz.ts
INFO: status=0 (LOCK) ucblocks=0, rflevel=-78.610 dBm, SNR 18.000 dB, BER 3.91e-03, quality 0
USB ISOC: all/complete=6971.440678/1948.225860 transfer/sec 3.83 MBytes 15.314203 mbits/sec, 54.464380 calls/sec
INFO: status=0 (LOCK) ucblocks=0, rflevel=-78.610 dBm, SNR 17.000 dB, BER 6.48e-07, quality 0
USB ISOC: all/complete=8000.119049/2230.687957 transfer/sec 4.39 MBytes 17.427258 mbits/sec, 62.500961 calls/sec
INFO: status=0 (LOCK) ucblocks=0, rflevel=-78.610 dBm, SNR 17.000 dB, BER 1.26e-07, quality 0
USB ISOC: all/complete=8000.091271/2230.680211 transfer/sec 4.39 MBytes 17.427189 mbits/sec, 62.500713 calls/sec
INFO: status=0 (LOCK) ucblocks=0, rflevel=-78.610 dBm, SNR 15.000 dB, BER 7.67e-07, quality 0
USB ISOC: all/complete=8000.253976/2230.725579 transfer/sec 4.39 MBytes 17.427543 mbits/sec, 62.501984 calls/sec
INFO: status=0 (LOCK) ucblocks=0, rflevel=-78.190 dBm, SNR 17.000 dB, BER 7.67e-07, quality 0
USB ISOC: all/complete=8000.134923/2230.692383 transfer/sec 4.39 MBytes 17.427284 mbits/sec, 62.501054 calls/sec
INFO: status=0 (LOCK) ucblocks=0, rflevel=-78.190 dBm, SNR 17.000 dB, BER 4.69e-07, quality 0
USB ISOC: all/complete=7999.936001/2230.482156 transfer/sec 4.36 MBytes 17.425650 mbits/sec, 62.499531 calls/sec
INFO: status=0 (LOCK) ucblocks=0, rflevel=-78.190 dBm, SNR 18.000 dB, BER 0.00e+00, quality 0
USB ISOC: all/complete=8000.198418/2230.710087 transfer/sec 4.39 MBytes 17.427422 mbits/sec, 62.501550 calls/sec
INFO: status=0 (LOCK) ucblocks=0, rflevel=-77.770 dBm, SNR 18.000 dB, BER 0.00e+00, quality 0
USB ISOC: all/complete=8000.170639/2230.702341 transfer/sec 4.39 MBytes 17.427362 mbits/sec, 62.501333 calls/sec
INFO: status=0 (LOCK) ucblocks=0, rflevel=-78.190 dBm, SNR 17.000 dB, BER 0.00e+00, quality 0
USB ISOC: all/complete=8000.123018/2230.689063 transfer/sec 4.39 MBytes 17.427267 mbits/sec, 62.500992 calls/sec
USB ISOC: all/complete=7999.932001/2230.982152 transfer/sec 4.36 MBytes 17.429548 mbits/sec, 62.499500 calls/sec
INFO: status=0 (LOCK) ucblocks=0, rflevel=-78.610 dBm, SNR 17.000 dB, BER 0.00e+00, quality 0
USB ISOC: all/complete=8000.246039/2230.723366 transfer/sec 4.39 MBytes 17.427526 mbits/sec, 62.501922 calls/sec
INFO: status=0 (LOCK) ucblocks=0, rflevel=-78.610 dBm, SNR 18.000 dB, BER 1.49e-07, quality 0
USB ISOC: all/complete=7999.984000/2230.495539 transfer/sec 4.36 MBytes 17.425746 mbits/sec, 62.499875 calls/sec
INFO: status=0 (LOCK) ucblocks=0, rflevel=-78.190 dBm, SNR 17.000 dB, BER 0.00e+00, quality 0
USB ISOC: all/complete=8000.242071/2230.722259 transfer/sec 4.39 MBytes 17.427517 mbits/sec, 62.501922 calls/sec
INFO: status=0 (LOCK) ucblocks=0, rflevel=-78.190 dBm, SNR 17.000 dB, BER 0.00e+00, quality 0
USB ISOC: all/complete=8000.134923/2230.693489 transfer/sec 4.39 MBytes 17.427293 mbits/sec, 62.501085 calls/sec
INFO: status=0 (LOCK) ucblocks=0, rflevel=-78.190 dBm, SNR 17.000 dB, BER 0.00e+00, quality 0
USB ISOC: all/complete=8000.107144/2230.684637 transfer/sec 4.39 MBytes 17.427223 mbits/sec, 62.500837 calls/sec
INFO: status=0 (LOCK) ucblocks=0, rflevel=-78.190 dBm, SNR 17.000 dB, BER 0.00e+00, quality 0
USB ISOC: all/complete=8000.123018/2231.185103 transfer/sec 4.39 MBytes 17.431134 mbits/sec, 62.500961 calls/sec
INFO: status=0 (LOCK) ucblocks=0, rflevel=-78.190 dBm, SNR 17.000 dB, BER 0.00e+00, quality 0
USB ISOC: all/complete=8000.154765/2230.697915 transfer/sec 4.39 MBytes 17.427336 mbits/sec, 62.501240 calls/sec
INFO: status=0 (LOCK) ucblocks=0, rflevel=-78.610 dBm, SNR 17.000 dB, BER 0.00e+00, quality 0
USB ISOC: all/complete=8000.079366/2230.676892 transfer/sec 4.39 MBytes 17.427172 mbits/sec, 62.500651 calls/sec
INFO: status=0 (LOCK) ucblocks=0, rflevel=-78.610 dBm, SNR 17.000 dB, BER 0.00e+00, quality 0
USB ISOC: all/complete=8000.087303/2230.679105 transfer/sec 4.39 MBytes 17.427180 mbits/sec, 62.500682 calls/sec
INFO: status=0 (LOCK) ucblocks=0, rflevel=-78.190 dBm, SNR 18.000 dB, BER 0.00e+00, quality 0
USB ISOC: all/complete=8000.162702/2230.700128 transfer/sec 4.39 MBytes 17.427353 mbits/sec, 62.501302 calls/sec
INFO: status=0 (LOCK) ucblocks=0, rflevel=-78.190 dBm, SNR 18.000 dB, BER 0.00e+00, quality 0
USB ISOC: all/complete=8000.119049/2230.689063 transfer/sec 4.39 MBytes 17.427258 mbits/sec, 62.500961 calls/sec
INFO: status=0 (LOCK) ucblocks=0, rflevel=-78.190 dBm, SNR 17.000 dB, BER 0.00e+00, quality 0
USB ISOC: all/complete=8000.095239/2230.681318 transfer/sec 4.39 MBytes 17.427198 mbits/sec, 62.500744 calls/sec
INFO: status=0 (LOCK) ucblocks=0, rflevel=-78.190 dBm, SNR 17.000 dB, BER 0.00e+00, quality 0
saved 104866400 bytes. Stopping TS ...
Closing device ...
joker_close: CI stack stopped
process_service: bye !
joker_close: service thread stopped
joker_close: done

    (1-16/16)